Koji Kondo The Legend Of Zelda Ost

Adding to the fun, graphics from the corresponding games grace each page of the sheet music. Hero of Time is an epic re-imagining of the soundtrack to Nintendo's timeless adventure RPG, The Legend of Zelda: Ocarina of Time. Related tracks View all. Sheet Music Print and download options may vary. Muzyka z gry The Legend of Zelda: Ocarina of Time. It's where your interests connect you with your people. Koji Kondo commence à composer des mélodies dès l’âge de 17 ans et s’intéresse rapidement à l’essor des jeux vidéo. The Legend of Zelda - Ocarina of Time - Koji Kondo - Kokiri Forest (John Kuzma). Super Mario 64 Original Soundtrack. Ending This is a VRC6 remake of the soundtrack to The Legend of Zelda, with 8 unique remixes of the dungeon theme, 3 overworld themes from various Zelda games, and two boss themes. Download Koji Kondo - The Legend of Zelda mp3. The Legend of Zelda, by Koji Kondo A lush fantasy and a key title for Nintendo, the various incarnations of The Legend of Zelda have become classics. It's the Music That Makes The Legend of Zelda So Extraordinary Koji Kondo's incredible score helped to position The Legend of Zelda as a mythology fit for the 21st century. The Legend Of Zelda constitutes many different games for different platforms, but they all have music at the heart of them. Find album reviews, stream songs, credits and award information for The Legend of Zelda (Original Sound Track) - Original Soundtrack on AllMusic - 1998. Producers Koji Kondo. I would describe the soundtrack as a whole (aside from the battle themes) as soothing, serene, at times majestic. Tumblr is a place to express yourself, discover yourself, and bond over the stuff you love. Listen online top songs Koji Kondo. The Legend Of Zelda: Breath Of The Wild Original Soundtrack Artist: Manaka Kataoka, Yasuaki Iwata, Hajime Wakai, Takuro Yasuda, Riyu Tamura, Soshi Abe, Koji Kondo, Kenta Nagata, Toru Minegishi, Takeshi Hama, Mahito Yokota. Find album reviews, stream songs, credits and award information for The Legend of Zelda (Original Sound Track) - Original Soundtrack on AllMusic - 1998. Try disabling any ad blockers and refreshing this page. Koji Kondo - Pandora. 0 % Test CRC 0F95D76A Copy CRC 0F95D76A Copy OK Track 55 Filename C:\Programfiler\Exact Audio Copy\The Legend of Zelda Ocarina Of Time\55 - Koji Kondo - Kakariko Village Orchestra. *FREE* shipping on eligible orders. It's really good. Download The Legend of Zelda Concert 2018, download ost anime , download ost anime terbaik , Download The Legend of Zelda Concert 2018 full version 320kbps , download ost anime terbaru , download ost anime The Legend of Zelda Concert 2018 free , Download The Legend of Zelda Concert 2018 jepang , download soundtrack anime The Legend of Zelda Concert 2018 , animebukatsu , laguanime, japan. Official soundtrack (Japanese edition) from The Legend of Zelda: Ocarina of Time (ゼルダの伝説 時のオカリナ) by Koji Kondo. Hyrule Field (Ennemies) - The Legend of Zelda TP OST. Discover more music, concerts, videos, and pictures with the largest catalogue online at Last. 1 % Track quality 100. Zelda’s Lullaby – Koji Kondo (The Legend of Zelda) Audio September 20, 2018 VIRTUALPIANO. The soundtrack for Ocarina of Time, the fifth edition of The Legend of Zelda—a flagship series for Nintendo that inspires such slavish devotion, both Robin Williams' daughter and Seth Rogen. Discover more music, concerts, videos, and pictures with the largest catalogue online at Last. Bass tablature for Legend Of Zelda Theme by Koji Kondo. 26 avg rating, 19 ratings, 2 reviews, published 2012), The Legend of Zelda Symphony of. Ballad Of The Windfish From Link's Awakening Based in the Original Work by Koji Kondo. The Legend of Zelda: A Link to the Past (ゼルダの伝説 神々のトライフォース) is the third game in the Legend of Zelda series. Before Fame. The Legend Of Zelda: Ocarina of Time (Original Soundtrack) The Legend of Zelda. Hero of Time is unprecedented in many ways, setting out to arrange and record with a full 64-piece orchestra the most poignant moments from the game. Kondo's work is famous among Nintendo fans, and even outside of the usual gaming scene. Koji Kondo (born August 13, 1960) is a Japanese video game composer and sound director who has been employed at Nintendo since 1984. The soundtrack for Ocarina of Time, the fifth edition of The Legend of Zelda—a flagship series for Nintendo that inspires such slavish devotion, both Robin Williams' daughter and Seth Rogen's spaniel share its name—was so full of creativity and color and wonder that it presented the most convincing possible case to argue game music. THE LEGEND OF ZELDA Twilight Princess HD ORIGINAL SOUNDTRACK ゼルダの伝説 トワイライトプリンセス HD オリジナルサウンドトラック Catalog Number TSCM-0058~60 Release Date Jul 27, 2016 Publish Format Commercial Release Price 4980 JPY Media Format 3 CD Classification Original Soundtrack Published by Symphony No. UBC A Cappella - 'Lost Woods / Sacred Grove' - Koji Kondo (The Legend of Zelda) Rozella Covert. The Paperback of the The Legend of Zelda Symphony of the Goddesses (Supplemental Edition): Piano Solos by Koji Kondo at Barnes & Noble. 0 % Test CRC 0F95D76A Copy CRC 0F95D76A Copy OK Track 55 Filename C:\Programfiler\Exact Audio Copy\The Legend of Zelda Ocarina Of Time\55 - Koji Kondo - Kakariko Village Orchestra. Koji Kondo-The Legend Of Zelda Medley by Rubén RR (Rubink95) is licensed under a Creative Commons License. Artist: Koji Kondo. For The Legend of Zelda: Breath of the Wild on the Wii U, a GameFAQs message board topic titled "I want a orchestra soundtrack almost solely done by Koji Kondo again". The Legend of Zelda: Ocarina of Time is an action-adventure game developed and published by Nintendo for the Nintendo 64. 26 avg rating, 19 ratings, 2 reviews, published 2012), The Legend of Zelda Symphony of. the legend of zelda main theme title by koji kondovideo game. Astral Laboratory (01:48) 27. It is no surprise that the UK organization Classic FM has honored Kondo and placed him in their hall of fame, placing him 84th out of 300 total inductees. Easy SKU PEA0017145 in our online store in excellent quality from professional musicians!. Các bạn có thể nghe, download (tải nhạc) bài hát the legend of zelda main theme medley mp3, playlist/album, MV/Video the legend of zelda main theme medley miễn phí tại NhacCuaTui. The Legend of Zelda: Majora’s Mask 3D Soundtrack (by Koji Kondo) Shop (02:30) 18. The soundtrack to Nintendo's The Legend of Zelda™: Spirit Tracks is packed with melodic, note-for-note transcriptions that sound great on the piano!. ca, Canada's largest bookstore. Guitar Tabs Universe. However, you might prefer The Legend of Zelda: Ocarina of Time Original Soundtrack (Japan) because it has more songs or The Legend Zelda: Ocarina of Time Original Soundtrack (US) because some of these tracks are longer than either choice. Set in the fantasy land of Hyrule, the plot centers on a boy named Link, the playable protagonist, who aims to collect the eight fragments. He is known for his work on Scott Pilgrim vs. Music from the video game The Legend of Zelda: Majora's Mask from 2000, by Nintendo Music by Koji Kondo & Toru Minegishi Musique du jeu vidéo The Legend of Zelda: Majora's Mask de 2000, par Nintendo Musique de Koji Kondo & Toru Minegishi To find a lot of discount video games: https://www. The Legend of Zelda, by Koji Kondo A lush fantasy and a key title for Nintendo, the various incarnations of The Legend of Zelda have become classics. Recommended by The Wall Street Journal. Murthag0666. This is a free Hybrid Piano Lesson by HDpiano. As a close friend of Shigeru Miyamoto, most of the games he has composed for are Miyamoto's creations. The Legend of Zelda: Original Sound Track is a soundtrack album by composer Koji Kondo, featuring the complete score to the 1998 Nintendo 64 video game The Legend of Zelda: Ocarina of Time. List of Songs Title Theme Beginning of a New Journey Seal of Seven Maidens Time of the Falling Rain Hyrule Castle Princess Zelda's Rescue Safety in the. Just in time for The Legend of Zelda's 30th Anniversary Celebration! iam8bit & Materia Collective are ecstatic to present Hero of Time, an officially licensed, one-hour arrangement album based on Koji Kondo's dynamic, epic and absolutely gorgeous score to The Legend of Zelda: Ocarina of Time. The public at large may not know his name, but many can hum the Mario Bros. The Legend Of Zelda: Ocarina of Time (Original Soundtrack) The Legend of Zelda. Koji Kondo The Legend Of Zelda Majora's Mask Soundt Japan Cd Pica-2006 2000 New Koji Kondo - $326. jazz trio (lead w/chordsymbols + harmony + bass). Complete your Koji Kondo collection. Related tracks View all. Solo SKU PSO0017146 in our online store in excellent quality from professional musicians!. Download Koji Kondo The Legend Of Zelda: Twilight Princess Official Soundtrack mp3 album. Price 0,15$ - MP3Eagle. UBC A Cappella - 'Lost Woods / Sacred Grove' - Koji Kondo (The Legend of Zelda) Rozella Covert. Print and download sheet music for The Legend of Zelda™ Ocarina of Time™ Title Theme composed by Koji Kondo. (1) 'Title Theme', from 'The Legend of Zelda: Ocarina of Time', by Koji Kondo for Piano. The Legend Of Zelda The Wind Waker The Legend Of The Hero by Koji Kondo tab with free online tab player. Easy SKU PEA0017145 in our online store in excellent quality from professional musicians!. From Koji Kondo's iconic "The Legend of Zelda™ Main Theme" to The Legend of Zelda™: Spirit Tracks themes, the dozens of pieces in this book represent two and a half decades of Nintendo® video game favorites. Home Soundtrack Game Soundtracks The Legend of Zelda: Ocarina of Time 3D Soundtrack By Koji Kondo Game Soundtracks Soundtrack The Legend of Zelda: Ocarina of Time 3D Soundtrack By Koji Kondo. Just in time for The Legend of Zelda's 30th Anniversary Celebration! iam8bit & Materia Collective are ecstatic to present Hero of Time, an officially licensed, one-hour arrangement album based on Koji Kondo's dynamic, epic and absolutely gorgeous score to The Legend of Zelda: Ocarina of Time. Filename C:\Programfiler\Exact Audio Copy\The Legend of Zelda Ocarina Of Time\54 - Koji Kondo - Escape From Lon Lon Ranch. The Legend of Zelda - Skyward Sword (Expanded Soundtrack, FLAC)下载就在776动漫[www. This soundtrack should not be picked up as a casual listen for one who does not know the nature and progression of The Legend of Zelda: Majora's Mask, but for those who do, it will bring about a sense of. Neoseeker Forums » The Legend of Zelda Community » Nintendo 3DS Games » Action » The Legend of Zelda: Ocarina of Time 3D » Soundtrack Interview with Koji Kondo. Divorced from the N64 sound chip origins and here played out by the fittingly 64-player Slovak National Symphony Orchestra, the audio of Legend of. Download The Legend of Zelda Concert 2018, download ost anime , download ost anime terbaik , Download The Legend of Zelda Concert 2018 full version 320kbps , download ost anime terbaru , download ost anime The Legend of Zelda Concert 2018 free , Download The Legend of Zelda Concert 2018 jepang , download soundtrack anime The Legend of Zelda Concert 2018 , animebukatsu , laguanime, japan. Arranged and performed by artist MOKA, the 12-track album featured remixes of most of Koji Kondo's pieces from OoT, from the battle and shop music to area-specific themes like Lon Lon Ranch and the Lost Woods. Koji Kondo / Toru Minegishi / Asuka Ohta / Mahito Yokota: The Legend Of Zelda: Twilight Princess HD (Sound Selection = Sélection Musicale), CD, Europäische Union, 2016, Nintendo (WUP-AZAP-EUR), Audio CD released with the limited edition version of the European release of 'The Legend Of Zelda Twilight Princess HD' video game for the Nintendo Wii U (This CD includes music that you cannot hear. The series' gameplay incorporates elements of action, adventure and puzzle-solving games. It took about 6 months, and it's technically been in the making for over two years, but I've finally released this passion project. Скачать koji kondo mp3 на телефон можно на нашем сайте koji kondo скачать в mp3 Koji Kondo - Lost Woods(The Legend of Zelda Ocarina of Time). If that doesn't work, please visit our help page. Shop the World's Largest Sheet Music Selection today at Sheet Music Plus. — Koji Kondo, Music Supervisor of the CD and chief composer of the series. The Legend of Zelda: Ocarina of Time (Original Soundtrack) by Koji Kondo on WhoSampled. The Legend of Zelda (from video game) by Koji Kondo. The Legend Of Zelda: Ocarina Of Time 3D Soundtrack (Koji Kondo; MP3 320) If this is your first visit, be sure to check out the FAQ by clicking the link above. Get a Heart Container! (00:05) 20. Legend of Zelda: Ocarina of Time - "Forest Temple" (Koji Kondo) The interesting thing is, comparing the Ocarina of Time soundtrack with the Super Mario 64 soundtrack, the instrument sets are very similar, especially for tracks like "Forest Temple," which sounds quite a bit like the "Cave" theme. Kondo is the best at what he does. Songs start at just $0. The Legend Of Zelda - Original Soundtrack von Koji Kondo als CD, mit Tracklist und weiteren Infos Informationen zum Tonträger The Legend Of Zelda - Original Soundtrack CD, 1998, Bootleg Koji Kondo: The Legend Of Zelda - Original Soundtrack - CD (1998, Bootleg). "THE LEGEND OF Zelda Series" Guitar Tab Music Book-Brand New On Sale Songbook!! - $13. Please kindly make sure it is correct Items will be shipped within 1 business days ( Saturday , Sunday & Public holidays NOT included ) after payment cleared. Download song: Koji Kondo The Legend of Zelda: Ocarina of Time - Hyrule Field Main Theme Artist: Koji Kondo Genre: Video Game Music Duration: 00:05:26 Bitrate: 128 Frequency: 255 Domain: www. You can download notes Koji Kondo - The Legend of Zelda Main Theme Piano. Music Composed by Koji Kondo, Toru Minegishi / Nintendo C. This is Volume 1 - an 8-bit adventure into the land of Hyroica. Is The Legend Of Zelda: Ocarina Of Time the best album by 近藤 浩治 [Koji Kondo]? BestEverAlbums. Commercial, Enclosure (CD) published by Nintendo Acción on Mar 1999 containing original soundtrack from The Legend of Zelda: Ocarina of Time / ゼルダの伝説 時のオカリナ / Zelda no Densetsu: Toki no Ocarina with compositions by Koji Kondo. Các bạn có thể nghe, download (tải nhạc) bài hát the legend of zelda mp3, playlist/album, MV/Video the legend of zelda miễn phí tại NhacCuaTui. It is no surprise that the UK organization Classic FM has honored Kondo and placed him in their hall of fame, placing him 84th out of 300 total inductees. Here you can buy and download music mp3 Koji Kondo. Koji Kondo was the one who outlined the entire soundtrack. It took about 6 months, and it's technically been in the making for over two years, but I've finally released this passion project. Producer: Nintendo. Discover releases, reviews, track listings, recommendations, and more about Koji Kondo - The Legend Of Zelda: Ocarina Of Time 3D Soundtrack CD at Discogs. On the subject of The Legend of Zelda: Majora's Mask 3D, coming. Koji Kondo / Toru Minegishi / Asuka Ohta / Mahito Yokota: The Legend Of Zelda: Twilight Princess HD (Sound Selection = Sélection Musicale), CD, Europäische Union, 2016, Nintendo (WUP-AZAP-EUR), Audio CD released with the limited edition version of the European release of 'The Legend Of Zelda Twilight Princess HD' video game for the Nintendo Wii U (This CD includes music that you cannot hear. Recommended by The Wall Street Journal. File Size: 485MB / ZIP / (MP3/320K/BK) Release (2016. The Legend of Zelda was early in the NES market, so it isn't expected to be awesome, but there are still several iconic tunes. Koji Kondo - [The Legend of Zelda: Twilight Princess CD1 #16] Instruction in the Ways of the Sword Koji Kondo - [The Legend of Zelda: Twilight Princess CD1 #17] Talo's Rescue Koji Kondo - [The Legend of Zelda: Twilight Princess CD1 #18] Battle First Half. The Legend Of Zelda: Skyward Sword (Expanded-VGMrip) Hajime Wakai, Shibo Fujii, Mahito Yokota, Takeshi Hama & Koji Kondo. Instrumental Solo in A Minor. The Legend Of Zelda The Wind Waker The Legend Of The Hero by Koji Kondo tab with free online tab player. koji kondo the legend of zelda™ ocarina of time™ song of a song of storm and fire tsubasa reservoir chronicle ost stave piano sheet music song of storms. However, you might prefer The Legend of Zelda: Ocarina of Time Original Soundtrack (Japan) because it has more songs or The Legend Zelda: Ocarina of Time Original Soundtrack (US) because some of these tracks are longer than either choice. After decades of anticipation, Alfred is proud to release the officially licensed, collectible sheet music companion folios to The Legend of Zelda video game series. The Legend of Zelda, by Koji Kondo A lush fantasy and a key title for Nintendo, the various incarnations of The Legend of Zelda have become classics. Koji Kondo is no different, as he's been hugely influenced by a number of notable bands and songs throughout the years. Find album reviews, stream songs, credits and award information for The Legend of Zelda (Original Sound Track) - Original Soundtrack on AllMusic - 1998. Listen to both songs on WhoSampled, the ultimate database of sampled music, cover songs and remixes. Koji Kondo is a sound director and composer at Nintendo, and one of the most popular music composers for video games. The Legend of Zelda Concert 2018ゼルダの伝説 コンサート2018Catalog Number COCX-40771~2Release Date Mar 06, 2019Publish Format CommercialRelease Price 3240 JPYMedia Format 2 CDClassification Arrangement, Live EventPublished by NIPPON COLUMBIAComposed by Manaka Kataoka, Yasuaki Iwata, Hajime Wakai, Koji Kondo, Toru Minegishi, Shiho Fujii, Mahito Yokota, Ryo Nagamatsu, Soshi Abe, Kozue. The Legend of Zelda - Koji Kondo PIano solo, intermediate to advanced level. Kondo's work is famous among Nintendo fans, and even outside of the usual gaming scene. It was released in November 1998 through Nintendo of America (United States) and on December 18, 1998 through Pony Canyon (Japan). He has composed the music to The Legend of Zelda, A Link to the Past, Ocarina of Time, Majora's Mask (with Toru Minegishi ), The Wind Waker (with Kenta Nagata, Hajime Wakai, and Toru Minegishi ), and Twilight Princess (with Toru Minegishi and Asuka Outa). Koji Kondo is a sound director and composer at Nintendo, and one of the most popular music composers for video games. Added on. Mobile compatible. The music's sound itself is kind of unique. Produced by Koji Kondo. to finally put the OST's on streaming services and more physical releases. Tracklist with lyrics of the album THE LEGEND OF ZELDA: MAJORA'S MASK [ORIGINAL SOUNDTRACK] [2000] from Koji Kondo: Title Screen - Forest Ambush - Forest. From Koji Kondo's iconic "The Legend of Zelda™ Main Theme" to The Legend of Zelda™: Spirit Tracks themes, the dozens of pieces in this book represent two and a half decades of Nintendo® video game favorites. Bass tablature for Legend Of Zelda Theme by Koji Kondo. Easy Ocarina Tabs! Check out our new site:. Vous recevrez votre commande sous bulles entre 5 et 15 jours pour la France et pour les DOM-TOM, et l'étranger entre 15 et 28 jours. "The Legend of Zelda: Ocarina of Time" was composed by the one and only 近藤浩治 [Koji Kondo] all by himself and he managed to compose one of the most beloved video game soundtracks of all time. Koji Kondo is a legendary Japanese sound director and video game composer. Buy mp3 The Legend Of Zelda: Twilight Princess Official Soundtrack album of Koji Kondo. Now I'm sure you all know that The Legend Of Zelda: Ocarina Of Time, the game, is nothing short of spectacular. "Song of Healing" (full version) - Koji Kondo The Legend of Zelda: Majora's Mask 12-hole Transverse Taiwanese C Ocarina. Koji Kondo was born on August 13, 1961 in Nagoya, Japan. Before Fame. The Legend of Zelda (ゼルダの伝説): ムジュラの仮面オリジナル・サウンドトラック (Majora's Mask Original Soundtrack), an Album by 近藤浩治 [Koji Kondo]. UBC A Cappella - 'Lost Woods / Sacred Grove' - Koji Kondo (The Legend of Zelda) Rozella Covert. Produced by Koji Kondo. Instrumental Solo in A Minor. The Legend of Zelda Symphony of the Goddesses: Piano Solos has 1 available editions to buy at Half Price Books Marketplace. Find album reviews, stream songs, credits and award information for The Legend of Zelda (Original Sound Track) - Original Soundtrack on AllMusic - 1998. The soundtrack consists of two discs spanning 112 total songs. We've taken the greatest melodies from The Legend of Zelda series and had them performed by a wonderfully powerful orchestra. Firstly, because it was released on two CDs and totaling 112 tracks. Swordsman’s School (01:49) 19. He studied the electronic organ while a child and later played in a jazz and rock cover band. Before Fame. Learn how to play the Intro & Part A of ‘Zelda Theme’ by Koji Kondo. wav Peak level 92. Officially licensed, and recorded by the 64-player Slovak National Symphony Orchestra. Music Reviews: The Legend of Zelda: Ocarina of Time by Koji Kondo released in 1998 via Pony Canyon. Koji Kondo The Legend Of Zelda Majora's Mask Soundt Japan Cd Pica-2006 2000 New Koji Kondo - $326. koji kondo Koji Kondo (近藤 浩治 Kondō Kōji, born August 13, 1961) is a Japanese music composer, pianist, and sound director who works for the video game company Nintendo. Skip to main content. Primary Artists Koji Kondo & The Legend of Zelda. 82 Songs from the awesome game "The Legend of Zelda: Ocarina of Time". It was composed by Japanese music composer and pianist Koji Kondo. For those of you who don't know, Koji Kondo is the man behind some of the most iconic tracks in the Super Mario and The Legend of Zelda series soundtracks. Listen free to Koji Kondo & Toru Minegishi – The Legend of Zelda: Majora's Mask OST. For The Legend of Zelda: Breath of the Wild on the Nintendo Switch, a GameFAQs message board topic titled "We need Koji Kondo for the next Zelda" - Page 3. or Legend of Zelda themes. Officially licensed, and recorded by the 64-player Slovak National Symphony Orchestra. The Legend of Zelda Theme Melody Songtext von Koji Kondo mit Lyrics, deutscher Übersetzung, Musik-Videos und Liedtexten kostenlos auf Songtexte. High Quality Album Artwork / CD Artwork - The Legend of Zelda: The Wind Waker by Koji Kondo, Hajime Wakai, Kenta Nagata, Toru Minegishi, - Album Cover Art. That breathtaking soundtrack is provided by Koji Kondo. 0 out of 5 by 1 user. Many of the most notable original game composers have been from Japan, including Nobuo Uematsu, Koji Kondo, Yuzo Koshiro, Yoko Shimomura, Junichi Masuda, Hip Tanaka, Masato Nakamura, Koichi Sugiyama, Yasunori Mitsuda, Michiru Yamane, Yuu Miyake, Takenobu Mitsuyoshi, Manabu Namiki, Shinji Hosoe, and Hiroshi Kawaguchi. Download song: Koji Kondo The Legend of Zelda: Ocarina of Time - Hyrule Field Main Theme Artist: Koji Kondo Genre: Video Game Music Duration: 00:05:26 Bitrate: 128 Frequency: 255 Domain: www. 0 % Test CRC 0F95D76A Copy CRC 0F95D76A Copy OK Track 55 Filename C:\Programfiler\Exact Audio Copy\The Legend of Zelda Ocarina Of Time\55 - Koji Kondo - Kakariko Village Orchestra. KOJI KONDO / The Legend of Zelda: Majora's Mask Original Soundtrack (2000) Like the previous game soundtrack, Ocarina of Time (1998) , the music of Majora's Mask was reliant on the N64's limited sound capabilities, but Koji once again managed to tease out some beautifully haunting themes that perfectly capture the environments they were. Koji Kondo-Hero Of Time (Music From The Legend Of Zelda: O (UK IMPORT) VINYL NEW 1 of 1 See More See Details on eBay Amazon. The series' gameplay incorporates elements of action, adventure and puzzle-solving games. The Legend of Zelda: Majora's Mask is an action-adventure game developed and published by Nintendo for the Nintendo 64. Booktopia has The Legend of Zelda for Easy Piano, Easy Piano Solos by Koji Kondo. Koji Kondo Discusses Ocarina of Time and Skyward Sword Soundtracks « Zelda Dungeon - Legend of Zelda Walkthroughs, News, Guides, Videos, Music, Media, and More on June 25, 2011 […] folks at Original Sound Version had the opportunity to speak with Ocarina of Time soundtrack creator Konji Kondo and ask him a few […]. This is an arrangement of Stone Tower Temple from the The Legend of Zelda: Majora's Mask soundtrack, arranged for solo acoustic guitar. Download The Legend Of Zelda: Twilight Princess Official Soundtrack by Koji Kondo at MP3mixx. I might put up some more Koji Kondo some other time. Ever since those four notes guided enemies … Koji Kondo: The Legend of Zelda: Ocarina of Time Read More ». 28) / Catalog Number COCX-39704~5. Buy Hero Of Time: Music From The Legend Of Zelda: Ocarina Of Time [OST] (LP) by Koji Kondo (LP $49. ) is a soundtrack album by Koji Kondo, featuring the complete score to the Nintendo 64 video game, The Legend of Zelda: Majora's Mask. The album is arranged & composed by Eric Buchholz, a maestro. For one, it does not even take place in Hyrule, the main setting for most Zelda games up to this point. Learn & play tab for lead guitar with free online tab player, speed control and loop. Producers Koji Kondo. Instrumental Solo in A Minor. Ocarina of Time is the fifth game in The Legend of Zelda series, and the first with 3D graphics. Sheet music arranged for Easy Piano in C Major. Adding to the fun, graphics from the corresponding games grace each page of the sheet music. Kondo is the best at what he does. This is a free Hybrid Piano Lesson by HDpiano. In a recent interview with GameSpot's Justin Haywald, famed Nintendo composer Koji Kondo discussed topics including the evolution of game music, his composition inspirations and work process, as well as his plans for the future. 82 Songs from the awesome game "The Legend of Zelda: Ocarina of Time". The Legend of Zelda: Triforce Catch Fanfare Songtext von Koji Kondo mit Lyrics, deutscher Übersetzung, Musik-Videos und Liedtexten kostenlos auf Songtexte. Before Fame. Koji Kondo is the author of The Legend of Zelda for Easy Piano (4. Koji Kondo, Soundtrack: Scott Pilgrim vs. Download The Legend of Zelda Twilight Princess Toru Minegishi, Asuka Ohta, Koji Kondo Orchestra Piece #2. The album is arranged & composed by Eric Buchholz, a maestro. Koji Kondo: | | | |Koji Kondo| | | | | ||| World Heritage Encyclopedia, the aggregation of the largest online encyclopedias available, and the most definitive. The Legend Of Zelda: Skyward Sword (Expanded-VGMrip) Hajime Wakai, Shibo Fujii, Mahito Yokota, Takeshi Hama & Koji Kondo. The Legend Of Zelda: Twilight Princess Official Soundtrack high quality complete mp3 album. Commercial, Enclosure (CD) published by Nintendo Acción on Mar 1999 containing original soundtrack from The Legend of Zelda: Ocarina of Time / ゼルダの伝説 時のオカリナ / Zelda no Densetsu: Toki no Ocarina with compositions by Koji Kondo. Instrumental Solo in A Minor. When I researched the music of The Legend of Zelda: Majora's Mask 3D, I found many questions about whether there were any changes to the original soundtrack. Download Alternate Overworld (Koji Kondo) mp3 - Zelda The Music of Soundtrack - Various Artists - MP3fiesta. It's the Music That Makes The Legend of Zelda So Extraordinary Koji Kondo's incredible score helped to position The Legend of Zelda as a mythology fit for the 21st century. Song Of Storms From The Ocarina Of Time Soundtrack 2. The score, composed by Nintendo’s in-house MVP Koji Kondo, was the first that truly thrived outside of its originating medium, a game centered around an ancient flute-like instrument. Before the session began, giddy members of the audience snuck up to Kondo-san, a. List of Songs Title Theme Beginning of a New Journey Seal of Seven Maidens Time of the Falling Rain Hyrule Castle Princess Zelda's Rescue Safety in the. Just in time for The Legend of Zelda's 30th Anniversary Celebration! iam8bit & Materia Collective are ecstatic to present Hero of Time, an officially licensed, one-hour arrangement album based on Koji Kondo's dynamic, epic and absolutely gorgeous score to The Legend of Zelda: Ocarina of Time. Using his skills in music, Kondo managed to produce an amazing soundtrack that fits the theme of the game. 48 MB, Album koji kondo the legend of zelda ocarina of time original soundtrack 1998 12 18 mp3 181 vbr cd j from uploaded. Artist: Koji Kondo. For your search Koji Kondo MP3 we have found 22 results matching your query free for download how to compose like koji kondo the zelda chord composer style, the koji kondo hook, the legend of zelda suite live with the swedish radio symphony orchestra score game music, koji kondo quot the legend of zelda 25th anniversary special orchestra quot audio. Koji Kondo (Japanese: 近藤 浩治, Hepburn: Kondō Kōji, born August 13, 1961) is a Japanese music composer, pianist, and sound director who works for the video game company Nintendo. Koji Kondo-Hero Of Time (Music From The Legend Of Zelda: O (UK IMPORT) VINYL NEW 1 of 1 See More See Details on eBay Amazon. from Street Fighter than like the Score of Legend of Zelda. Kondos Musik wird vor allem durch Einflüsse aus klassischer und Jazzmusik, außerdem von ostasiatischen Stilen beeinflusst. Ballad Of The Windfish From Link's Awakening Based in the Original Work by Koji Kondo. It was released in 2006 as a giveaway through Nintendo Power for new subscribers and contains seven tracks on one disc. Price 0,15$ - MP3Eagle. Just in time for The Legend of Zelda's 30th Anniversary Celebration! iam8bit and Materia Collective are ecstatic to present Hero of Time, an officially licensed, one-hour arrangement album based on Koji Kondo's dynamic, epic and absolutely gorgeous score to The Legend of Zelda: Ocarina of Time. original song by Koji Kondo. Producer: Nintendo. He is best known for his involvement in numerous contributions in the Mario and The Legend of Zelda series of video games, among others produced by the company. You can buy Album The Legend Of Zelda 25Th Anniversary Symphony 2011 - Koji Kondo. This is an arrangement of Stone Tower Temple from the The Legend of Zelda: Majora's Mask soundtrack, arranged for solo acoustic guitar. Composed by Koji Kondo, Kozue Ishikawa, Toru Minegishi, Kenta Nagata, Akito Nakatsuka, Asuka Ohta, Manaka Tominaga, and Hajime Wakai. Koji Kondo is a legendary Japanese sound director and video game composer. Commercial, Enclosure (CD) published by Nintendo Acción on Mar 1999 containing original soundtrack from The Legend of Zelda: Ocarina of Time / ゼルダの伝説 時のオカリナ / Zelda no Densetsu: Toki no Ocarina with compositions by Koji Kondo. GuitarGuitar Tab. The Legend Of Zelda: Ocarina Of Time (Original Soundtrack) (CD2) (2006) Tweet. Kondo's work on The Legend of Zelda scores has also become highly recognized. "Best in Show" Award at Winter NAMM 2012 presented by Music Inc. As respects the soundtrack of The Legend of Zelda: Majora’s Mask , it was more complex than the other. Shop and save on the Koji Kondo - Hero of Time (Music from The Legend of Zelda: Ocarina of Time) at Woodwind & Brasswind. The Legend of Zelda - Koji Kondo PIano solo, intermediate to advanced level. Koji Kondo's LoZ: Ocarina Of Time Soundtrack Here's the soundtrack from my favourite video game. Muzyka z gry The Legend of Zelda: Ocarina of Time. In stock now for same day shipping. The Legend of Zelda: Majora's Mask Original Soundtrack ゼルダの伝説 ムジュラの仮面 オリジナル・サウンドトラック Zelda no Densetsu: Mujura no Kamen Original Soundtrack. The music's sound itself is kind of unique. The CD was shipped with the Special Edition of Skyward Sword to celebrate the 25th anniversary of The Legend of Zelda series. To this day, Kondo continues to work with Nintendo making music for video games. Released December 18, 1998. Koji Kondo is the author of The Legend of Zelda for Easy Piano (4. The Legend of Zelda: Ocarina of Time Original Soundtrack was originally released on December 18th, 1998 in Japan and it is the official soundtrack for Ocarina of Time. Buy mp3 The Legend Of Zelda: Twilight Princess Official Soundtrack album of Koji Kondo. Just in time for The Legend of Zelda's 30th Anniversary Celebration! iam8bit & Materia Collective are ecstatic to present Hero of Time, an officially licensed, one-hour arrangement album based on Koji Kondo's dynamic, epic and absolutely gorgeous score to The Legend of Zelda: Ocarina of Time. You can download notes Koji Kondo - The Legend of Zelda Main Theme Piano. Blogspot is a blog that is dedicated to video game soundtracks, giving you a way to listen to the music from the games you love, slowly building a directory of video game soundtracks. The soundtrack consists of two discs spanning 112 total songs. The Legend of Zelda: Majora's Mask Original Soundtrack is a soundtrack album by. The Legend of Zelda Ocarina of Time Sound Track CD Release DateNovember 21, 1998Composer(s)Koji KondoClassificationGame Soundtrack - Original Soundtra. Hero of Time is a one hour arrangement based on Koji Kondo's score to The Legend of Zelda: Ocarina of Time. All music links on this blog are for users who already own the album but want an mp3v0/"Proper tagged" version of them! This site is not responsible for anything as it assumes you already own the album. The Legend Of Zelda constitutes many different games for different platforms, but they all have music at the heart of them. "The Legend of Zelda: Ocarina of Time" was composed by the one and only 近藤浩治 [Koji Kondo] all by himself and he managed to compose one of the most beloved video game soundtracks of all time. Koji Kondo Upends the Tea Table Yokota: It’s nothing special now, but as far as I recall, no games before The Legend of Zelda: Ocarina of Time switched seamlessly to the fight music when you were on an adventure and a fight scene began. Today, we revisit a globetrotting fantasia on the Nintendo 64 that remains the high-water mark for video game music. The soundtrack to Nintendo's The Legend of Zelda™: Spirit Tracks is packed with melodic, note-for-note transcriptions that sound great on the piano!. However, you might prefer The Legend of Zelda: Ocarina of Time Original Soundtrack (Japan) because it has more songs or The Legend Zelda: Ocarina of Time Original Soundtrack (US) because some of these tracks are longer than either choice. Koji Kondo (?? ??, Kond? K?ji, born August 13, 1961) is a Japanese video game composer and sound director who has been employed at Nintendo since 1984. This re-released 2 CD set features the entire soundtrack of this classic Zelda™ title and will be packaged in a double-CD jewel case. PICA-2006; CD). The Legend of Zelda: A Link to the Past (ゼルダの伝説 神々のトライフォース) is the third game in the Legend of Zelda series. Offizieller Soundtrack (Japanische Version) a. I was fortunate enough to acquire a copy of The Legend of Zelda: Breath of the Wild Special Edition released in North America. and The Legend of Zelda. The song Lost woods - the legend of zelda: ocarina of time from Koji kondo has been identified on WatZatSong by Nick232 in 67 days. Kondo is the best at what he does. Arranged and performed by artist MOKA, the 12-track album featured remixes of most of Koji Kondo's pieces from OoT, from the battle and shop music to area-specific themes like Lon Lon Ranch and the Lost Woods. This is an arrangement of Stone Tower Temple from the The Legend of Zelda: Majora's Mask soundtrack, arranged for solo acoustic guitar. Các bạn có thể nghe, download (tải nhạc) bài hát the legend of zelda mp3, playlist/album, MV/Video the legend of zelda miễn phí tại NhacCuaTui. Ca khúc The Legend Of Zelda do ca sĩ Koji Kondo thể hiện, thuộc thể loại Không Lời. Z: Zelda, All Grown Up – Review of “The Legend of Zelda Suite” by Koji Kondo Posted on April 30, 2014 April 24, 2014 by johnmarkmiller While fighting traffic during my daily commute each evening, I’ve discovered that Pandora is my friend. Stream The Legend of Zelda: Skyward Sword - Full OST, an album by Hajime Wakai, Shibo Fujii, Mahito Yokota, Takeshi Hama, Koji Kondo. Buy mp3 The Legend Of Zelda: Twilight Princess Official Soundtrack album of Koji Kondo. That breathtaking soundtrack is provided by Koji Kondo. He is most famous for his works on the Mario and The Legend of Zelda series. Buy Hero Of Time: Music From The Legend Of Zelda Ocarina Of Time (Soundtrack) at Juno Records. A prolific composer of many of Nintendo's key franchises, Koji Kondo is best known for writing overworld themes for Super Mario Bros. save Save Oboe - Legend of Zelda - Ocarina of Time - Koji Ko For Later. Murthag0666. Legend Of Zelda Main Theme ukulele tablature by Koji Kondo, free uke tab and chords. Kondo is the best at what he does. Koji Kondo The Legend Of Zelda Title Theme This is the 'Game Over Theme', from 'The Legend of Zelda', originally composed. 482 Piano Sheets Music are collected for any of your needs. He is best known for his involvement in numerous contributions in the Mario and The Legend of Zelda series of video games, among others produced by the company. iam8bit & Materia Collective are ecstatic to present Hero of Time, an officially licensed, one-hour arrangement album based on Koji Kondo's dynamic, epic and absolutely gorgeous score to The Legend of Zelda: Ocarina of Time. The Legend of Zelda (from video game) by Koji Kondo. Download Alternate Overworld (Koji Kondo) mp3 - Zelda The Music of Soundtrack - Various Artists - MP3fiesta. Download The Legend of Zelda Concert 2018, download ost anime , download ost anime terbaik , Download The Legend of Zelda Concert 2018 full version 320kbps , download ost anime terbaru , download ost anime The Legend of Zelda Concert 2018 free , Download The Legend of Zelda Concert 2018 jepang , download soundtrack anime The Legend of Zelda Concert 2018 , animebukatsu , laguanime, japan. The Legend Of Zelda The Wind Waker The Legend Of The Hero by Koji Kondo tab with free online tab player. Songwriter - Koji Kondo Notes This promotional CD is the official Soundtrack for the German version of the video game "The Legend Of Zelda: Majora's Mask". He produced four main pieces of background music for the first installment of the series; the overworld theme has become comparable in popularity with the Super Mario Bros. flyingomelette. Mobile compatible. He is most famous for having composed the scores to the 'Super Mario' and 'The Legend of Zelda' Series. Just in time for The Legend of Zelda's 30th Anniversary Celebration! iam8bit and Materia Collective are ecstatic to present Hero of Time, an officially licensed, one-hour arrangement album based on Koji Kondo's dynamic, epic and absolutely gorgeous score to The Legend of Zelda: Ocarina of Time. Is The Legend Of Zelda: Ocarina Of Time the best album by 近藤 浩治 [Koji Kondo]? BestEverAlbums. Released December 18, 1998. The soundtrack consists of one disc spanning 82 total songs with a total run time of 76 minutes and 14 seconds. The Legend of Zelda: Twilight Princess HD Sound Selection ~ Release by Toru Minegishi, Koji Kondo, Asuka Ohta & Mahito Yokota (see all versions of this release, 4 available). Koji Kondo could make a great tune with just a couple of notes. Koji Kondo was the creator of this soundtrack and we agree he made a great job. Pitchfork reviews Koji Kondo's The Legend of Zelda: Ocarina of Time soundtrack. Music Composed by Koji Kondo, Toru Minegishi / Nintendo C. If you REALLY like the music from this game, get one of the soundtracks. I've been making beats for around ten years now, and i'll go there and say it.